Blindspot S03E22

Posted By: Tavaz
Blindspot S03E22

Blindspot S03E22
MKV | 640x480 | H264 @ 411 kbps | MPEG Audio @ 128 kbps | 43 min 21 s | 171 MiB
Genre: Action, Crime, Drama

A vast international plot explodes when a beautiful Jane Doe is discovered naked in Times Square, completely covered in mysterious, intricate tattoos with no memory of who she is or how she got there. But there's one tattoo that is impossible to miss: the name of FBI agent Kurt Weller, emblazoned across her back. "Jane," Agent Weller and the rest of the FBI quickly realize that each mark on her body is a crime to solve, leading them closer to the truth about her identity and the mysteries to be revealed.

63f3a5912098424586f347ddccf5bb73.mkv (170.8 MB)



General
Unique ID : 237198422980036763999986725480102651992 (0xB272C12AB456F771404207ADA6746858)
Complete name : ./63f3a5912098424586f347ddccf5bb73.mkv
Format : Matroska
Format version : Version 4 / Version 2
File size : 171 MiB
Duration : 43 min 21 s
Overall bit rate : 551 kb/s
Writing application : Lavf57.79.100
Writing library : Lavf57.79.100
ErrorDetectionType : Per level 1

Video
ID : 1
Format : AVC
Format/Info : Advanced Video Codec
Format profile : High@L3
Format settings : CABAC / 4 Ref Frames
Format settings, CABAC : Yes
Format settings, RefFrames : 4 frames
Codec ID : V_MPEG4/ISO/AVC
Duration : 43 min 21 s
Bit rate : 412 kb/s
Width : 640 pixels
Height : 480 pixels
Display aspect ratio : 16:9
Frame rate mode : Constant
Frame rate : 23.976 (24000/1001) FPS
Color space : YUV
Chroma subsampling : 4:2:0
Bit depth : 8 bits
Scan type : Progressive
Bits/(Pixel*Frame) : 0.056
Stream size : 128 MiB (75%)
Writing library : x264 core 152 r2851 ba24899
Encoding settings : cabac=1 / ref=1 / deblock=1:0:0 / analyse=0x3:0x113 / me=hex / subme=2 / psy=1 / psy_rd=1.00:0.00 / mixed_ref=0 / me_range=16 / chroma_me=1 / trellis=0 / 8x8dct=1 / cqm=0 / deadzone=21,11 / fast_pskip=1 / chroma_qp_offset=0 / threads=12 / lookahead_threads=3 / sliced_threads=0 / nr=0 / decimate=1 / interlaced=0 / bluray_compat=0 / constrained_intra=0 / bframes=3 / b_pyramid=2 / b_adapt=1 / b_bias=0 / direct=1 / weightb=1 / open_gop=0 / weightp=1 / keyint=250 / keyint_min=23 / scenecut=40 / intra_refresh=0 / rc_lookahead=10 / rc=crf / mbtree=1 / crf=23.0 / qcomp=0.60 / qpmin=0 / qpmax=69 / qpstep=4 / ip_ratio=1.40 / aq=1:1.00
Default : Yes
Forced : No
Statistics Tags Issue : mkvmerge v23.0.0 ('The Bride Said No') 64-bit 2018-05-19 09:01:52 / Lavf57.79.100
FromStats_BitRate : 2541211
FromStats_Duration : 00:43:15.178000000
FromStats_FrameCount : 62222
FromStats_StreamSize : 824361476

Audio
ID : 2
Format : MPEG Audio
Format version : Version 1
Format profile : Layer 3
Format settings : Joint stereo
Mode : Joint stereo
Codec ID : A_MPEG/L3
Codec ID/Hint : MP3
Duration : 43 min 21 s
Bit rate mode : Constant
Bit rate : 128 kb/s
Channel(s) : 2 channels
Sampling rate : 44.1 kHz
Compression mode : Lossy
Stream size : 39.7 MiB (23%)
Writing library : LAME3.99.5
Default : Yes
Forced : No
Statistics Tags Issue : mkvmerge v23.0.0 ('The Bride Said No') 64-bit 2018-05-19 09:01:52 / Lavf57.79.100
FromStats_BitRate : 95925
FromStats_Duration : 00:43:21.635000000
FromStats_FrameCount : 112043
FromStats_StreamSize : 31195448





Blindspot S03E22


Blindspot S03E22


Blindspot S03E22


Blindspot S03E22


Blindspot S03E22

All episodes

SitemapDie Küste der Ganoven | Baixar toque para celular | The Judges Do Battle