Zoo S03E05

Posted By: Tavaz
720p (HD) / WEBRip IMDb
Zoo S03E05

Zoo S03E05
WEBRip | MKV | 1280x720 | Spanish | H264 @ 2260 kbps | E-AC-3 @ 128 kbps | 43 min 39 s | 738 MiB
Subtitles: Spanish
Genre: Drama

Set amidst a wave of violent animal attacks sweeping across the planet, a young renegade scientist is thrust into a race to unlock the mystery behind this pandemic before time runs out for animals and humans alike.

zoo.s03e05.spanish.720p.web.x264-fcc.mkv (738.3 MB)



General
Unique ID : 83982911407128740343512615559736185437 (0x3F2E853840676825A7610E9A9DE5D25D)
Complete name : ./zoo.s03e05.spanish.720p.web.x264-fcc.mkv
Format : Matroska
Format version : Version 4 / Version 2
File size : 738 MiB
Duration : 43 min 39 s
Overall bit rate mode : Variable
Overall bit rate : 2 365 kb/s
Encoded date : UTC 2018-06-30 14:46:13
Writing application : mkvmerge v21.0.0 ('Tardigrades Will Inherit The Earth') 32-bit
Writing library : libebml v1.3.5 + libmatroska v1.4.8

Video
ID : 1
Format : AVC
Format/Info : Advanced Video Codec
Format profile : Main@L3.1
Format settings : CABAC / 3 Ref Frames
Format settings, CABAC : Yes
Format settings, RefFrames : 3 frames
Codec ID : V_MPEG4/ISO/AVC
Duration : 43 min 38 s
Bit rate mode : Variable
Bit rate : 2 260 kb/s
Maximum bit rate : 3 390 kb/s
Width : 1 280 pixels
Height : 720 pixels
Display aspect ratio : 16:9
Frame rate mode : Constant
Frame rate : 23.976 (24000/1001) FPS
Color space : YUV
Chroma subsampling : 4:2:0
Bit depth : 8 bits
Scan type : Progressive
Bits/(Pixel*Frame) : 0.102
Stream size : 698 MiB (95%)
Writing library : x264 core 118
Encoding settings : cabac=1 / ref=3 / deblock=1:0:0 / analyse=0x1:0x111 / me=umh / subme=10 / psy=1 / psy_rd=1.00:0.00 / mixed_ref=1 / me_range=24 / chroma_me=1 / trellis=2 / 8x8dct=0 / cqm=0 / deadzone=21,11 / fast_pskip=1 / chroma_qp_offset=-2 / threads=8 / sliced_threads=0 / nr=0 / decimate=1 / interlaced=0 / bluray_compat=0 / constrained_intra=0 / bframes=2 / b_pyramid=0 / b_adapt=2 / b_bias=0 / direct=3 / weightb=1 / open_gop=0 / weightp=2 / keyint=48 / keyint_min=25 / scenecut=0 / intra_refresh=0 / rc_lookahead=0 / rc=2pass / mbtree=1 / bitrate=2260 / ratetol=1.0 / qcomp=0.50 / qpmin=6 / qpmax=51 / qpstep=4 / cplxblur=20.0 / qblur=0.5 / vbv_maxrate=3390 / vbv_bufsize=4520 / nal_hrd=vbr / ip_ratio=1.40 / aq=1:1.00
Default : Yes
Forced : No

Audio
ID : 2
Format : E-AC-3
Format/Info : Enhanced Audio Coding 3
Format settings, Endianness : Big
Codec ID : A_EAC3
Duration : 43 min 39 s
Bit rate mode : Constant
Bit rate : 128 kb/s
Channel(s) : 2 channels
Channel positions : Front: L R
Sampling rate : 48.0 kHz
Frame rate : 187.500 FPS (256 SPF)
Compression mode : Lossy
Stream size : 40.0 MiB (5%)
Title : Castellano
Language : Spanish
Service kind : Complete Main
Default : Yes
Forced : No

Text #1
ID : 3
Format : UTF-8
Codec ID : S_TEXT/UTF8
Codec ID/Info : UTF-8 Plain Text
Duration : 42 min 50 s
Bit rate : 0 b/s
Count of elements : 9
Stream size : 298 Bytes (0%)
Title : Castellano [Forzados]
Language : Spanish
Default : Yes
Forced : Yes

Text #2
ID : 4
Format : UTF-8
Codec ID : S_TEXT/UTF8
Codec ID/Info : UTF-8 Plain Text
Duration : 43 min 7 s
Bit rate : 68 b/s
Count of elements : 640
Stream size : 21.8 KiB (0%)
Title : Castellano [Completos]
Language : Spanish
Default : No
Forced : No





Zoo S03E05


Zoo S03E05


Zoo S03E05


Zoo S03E05


Zoo S03E05

All episodes

SitemapOne for the Ages | storici-biografici6 | Rogue Mission FRENCH HDRiP 2018