Zoo S03E08

Posted By: Tavaz
1080p (FullHD) / WEBRip IMDb
Zoo S03E08

Zoo S03E08
WEBRip | MKV | 1920x1080 | Spanish | H264 @ 3010 kbps | E-AC-3 @ 128 kbps | 43 min 27 s | 965 MiB
Subtitles: Spanish
Genre: Drama

Set amidst a wave of violent animal attacks sweeping across the planet, a young renegade scientist is thrust into a race to unlock the mystery behind this pandemic before time runs out for animals and humans alike.

zoo.s03e08.spanish.1080p.web.x264-fcc.mkv (965.0 MB)



General
Unique ID : 261224143296915057463039063323104580899 (0xC485F0A2593E135611B15D896BE11523)
Complete name : ./zoo.s03e08.spanish.1080p.web.x264-fcc.mkv
Format : Matroska
Format version : Version 4 / Version 2
File size : 965 MiB
Duration : 43 min 27 s
Overall bit rate mode : Variable
Overall bit rate : 3 105 kb/s
Encoded date : UTC 2018-06-30 16:45:20
Writing application : mkvmerge v21.0.0 ('Tardigrades Will Inherit The Earth') 32-bit
Writing library : libebml v1.3.5 + libmatroska v1.4.8

Video
ID : 1
Format : AVC
Format/Info : Advanced Video Codec
Format profile : Main@L4
Format settings : CABAC / 3 Ref Frames
Format settings, CABAC : Yes
Format settings, RefFrames : 3 frames
Codec ID : V_MPEG4/ISO/AVC
Duration : 43 min 26 s
Bit rate mode : Variable
Bit rate : 3 010 kb/s
Maximum bit rate : 4 515 kb/s
Width : 1 920 pixels
Height : 1 080 pixels
Display aspect ratio : 16:9
Frame rate mode : Constant
Frame rate : 23.976 (24000/1001) FPS
Color space : YUV
Chroma subsampling : 4:2:0
Bit depth : 8 bits
Scan type : Progressive
Bits/(Pixel*Frame) : 0.061
Stream size : 925 MiB (96%)
Writing library : x264 core 118
Encoding settings : cabac=1 / ref=3 / deblock=1:0:0 / analyse=0x1:0x111 / me=umh / subme=10 / psy=1 / psy_rd=1.00:0.00 / mixed_ref=1 / me_range=24 / chroma_me=1 / trellis=2 / 8x8dct=0 / cqm=0 / deadzone=21,11 / fast_pskip=1 / chroma_qp_offset=-2 / threads=6 / sliced_threads=0 / nr=0 / decimate=1 / interlaced=0 / bluray_compat=0 / constrained_intra=0 / bframes=2 / b_pyramid=0 / b_adapt=2 / b_bias=0 / direct=3 / weightb=1 / open_gop=0 / weightp=2 / keyint=48 / keyint_min=25 / scenecut=0 / intra_refresh=0 / rc_lookahead=0 / rc=2pass / mbtree=1 / bitrate=3010 / ratetol=1.0 / qcomp=0.50 / qpmin=6 / qpmax=51 / qpstep=4 / cplxblur=20.0 / qblur=0.5 / vbv_maxrate=4515 / vbv_bufsize=6020 / nal_hrd=vbr / ip_ratio=1.40 / aq=1:1.00
Default : Yes
Forced : No

Audio
ID : 2
Format : E-AC-3
Format/Info : Enhanced Audio Coding 3
Format settings, Endianness : Big
Codec ID : A_EAC3
Duration : 43 min 27 s
Bit rate mode : Constant
Bit rate : 128 kb/s
Channel(s) : 2 channels
Channel positions : Front: L R
Sampling rate : 48.0 kHz
Frame rate : 187.500 FPS (256 SPF)
Compression mode : Lossy
Stream size : 39.8 MiB (4%)
Title : Castellano
Language : Spanish
Service kind : Complete Main
Default : Yes
Forced : No

Text #1
ID : 3
Format : UTF-8
Codec ID : S_TEXT/UTF8
Codec ID/Info : UTF-8 Plain Text
Duration : 42 min 38 s
Bit rate : 2 b/s
Count of elements : 26
Stream size : 827 Bytes (0%)
Title : Castellano [Forzados]
Language : Spanish
Default : Yes
Forced : Yes

Text #2
ID : 4
Format : UTF-8
Codec ID : S_TEXT/UTF8
Codec ID/Info : UTF-8 Plain Text
Duration : 42 min 55 s
Bit rate : 77 b/s
Count of elements : 569
Stream size : 24.4 KiB (0%)
Title : Castellano [Completos]
Language : Spanish
Default : No
Forced : No





Zoo S03E08


Zoo S03E08


Zoo S03E08


Zoo S03E08


Zoo S03E08

All episodes

SitemapLucy Boynton | The Closet Rec season 06 episode 19 | Regarder